<?xml version="1.0" standalone="no"?>
<!DOCTYPE svg PUBLIC "-//W3C//DTD SVG 1.1//EN" "http://www.w3.org/Graphics/SVG/1.1/DTD/svg11.dtd">
<svg xmlns="http://www.w3.org/2000/svg">
<defs >
<font id="NunitoSans" horiz-adv-x="587" ><font-face
    font-family="Nunito Sans Black"
    units-per-em="1000"
    panose-1="0 0 10 0 0 0 0 0 0 0"
    ascent="1011"
    descent="-353"
    alphabetic="0" />
<glyph unicode=" " glyph-name="space" horiz-adv-x="286" />
<glyph unicode="!" glyph-name="exclam" horiz-adv-x="272" d="M82 244L27 706L245 705L189 244H82ZM43 182H228V0H43V182Z" />
<glyph unicode="&quot;" glyph-name="quotedbl" horiz-adv-x="487" d="M75 398L32 705H236L194 398H75ZM294 398L251 705H455L413 398H294Z" />
<glyph unicode="#" glyph-name="numbersign" horiz-adv-x="600" d="M545 447H477L441 266H523V159H420L388 0H274L306 159H218L186 0H71L103 159H55V266H124L160 447H77V554H182L212 705H326L296 554H384L414 705H529L499 554H545V447ZM327 266L363 447H275L239 266H327Z" />
<glyph unicode="$" glyph-name="dollar" horiz-adv-x="600" d="M585 130T530 73T380 -2V-115H240V-6Q176 -1 121 17T25 65L82 195Q179 132 292 132Q402 132 402 202Q402 232 372 246T273 278Q199 297 151 317T68 379T32 492Q32 571 88 629T236 706V820H376V710Q434
702 484 684T565 639L508 509Q460 540 410 556T315 573Q269 573 242 555T214 504Q214 481 231 466T275 442T349 421Q421 404 469 385T551 324T585 211Q585 130 530 73Z" />
<glyph unicode="%" glyph-name="percent" horiz-adv-x="964" d="M334 -32L222 34L630 737L742 671L334 -32ZM129 286T79 342T29 503Q29 606 79 661T217 717Q305 717 355 662T405 502Q405 397 355 342T217 286Q129 286 79 342ZM240 394T250 418T261 502Q261 559
250 583T217 608Q194 608 184 584T173 502Q173 443 183 419T217 394Q240 394 250 418ZM658 -7T608 49T558 210Q558 313 608 368T746 424Q834 424 884 369T934 209Q934 104 884 49T746 -7Q658 -7 608 49ZM769 101T779 125T790 209Q790 266 779 291T746 316Q723 316
713 292T702 209Q702 150 712 126T746 101Q769 101 779 125Z" />
<glyph unicode="&amp;" glyph-name="ampersand" horiz-adv-x="702" d="M559 0L492 64Q398 -8 284 -8Q208 -8 149 17T57 89T24 194Q24 256 55 304T153 391Q90 459 90 532Q90 585 117 626T194 689T307 712Q396 712 449 667T503 545Q503 437 383 369L485 272Q522
350 528 437H673Q669 363 648 296T591 172L771 0H559ZM281 597T264 580T247 533Q247 515 256 498T292 455Q331 474 348 494T365 540Q365 565 350 581T310 597Q281 597 264 580ZM344 125T393 160L245 301Q195 263 195 206Q195 169 221 147T289 125Q344 125 393 160Z"
/>
<glyph unicode="&apos;" glyph-name="quotesingle" horiz-adv-x="268" d="M75 398L32 705H236L194 398H75Z" />
<glyph unicode="(" glyph-name="parenleft" horiz-adv-x="398" d="M164 -67T131 39T98 263Q98 381 131 487T248 724L363 676Q315 551 298 459T280 263Q280 160 297 68T363 -150L248 -198Q164 -67 131 39Z" />
<glyph unicode=")" glyph-name="parenright" horiz-adv-x="398" d="M35 -150Q83 -25 100 67T118 263Q118 366 101 458T35 676L150 724Q234 593 267 487T300 263Q300 145 267 39T150 -198L35 -150Z" />
<glyph unicode="*" glyph-name="asterisk" horiz-adv-x="455" d="M428 579V459L317 467L379 376L276 316L227 416L178 317L76 376L138 468L28 460V579L138 571L77 663L179 723L228 623L276 723L379 662L317 571L428 579Z" />
<glyph unicode="+" glyph-name="plus" horiz-adv-x="600" d="M544 347V228H359V44H241V228H56V347H241V532H359V347H544Z" />
<glyph unicode="," glyph-name="comma" horiz-adv-x="272" d="M228 182V67Q228 3 205 -49T127 -155L60 -102Q114 -48 127 0H43V182H228Z" />
<glyph unicode="-" glyph-name="hyphen" horiz-adv-x="446" d="M63 199V338H383V199H63Z" />
<glyph unicode="." glyph-name="period" horiz-adv-x="272" d="M43 182H228V0H43V182Z" />
<glyph unicode="/" glyph-name="slash" horiz-adv-x="349" d="M109 -82L-21 -43L239 770L369 731L109 -82Z" />
<glyph unicode="0" glyph-name="zero" horiz-adv-x="600" d="M169 -9T100 84T31 353Q31 526 100 619T300 712Q430 712 499 619T569 353Q569 177 500 84T300 -9Q169 -9 100 84ZM348 130T369 182T390 353Q390 470 369 521T300 573Q252 573 231 522T210 353Q210 234
231 182T300 130Q348 130 369 182Z" />
<glyph unicode="1" glyph-name="one" horiz-adv-x="600" d="M430 146H581V0H95V146H246V505L127 437L61 569L300 705H430V146Z" />
<glyph unicode="2" glyph-name="two" horiz-adv-x="601" d="M556 146V0H59V136L289 375Q355 444 355 502Q355 572 272 572Q232 572 186 556T92 509L35 639Q77 673 144 693T282 714Q358 714 415 690T504 620T535 515Q535 454 511 404T427 291L285 146H556Z" />
<glyph unicode="3" glyph-name="three" horiz-adv-x="600" d="M486 346T519 301T553 192Q553 99 480 46T279 -8Q204 -8 135 12T25 67L82 197Q176 134 270 134Q330 134 355 152T381 212Q381 251 356 268T274 285H165V427H256Q311 427 336 443T361 494Q361 531 338
551T271 572Q229 572 182 556T92 509L35 639Q77 673 145 693T285 714Q360 714 416 690T504 622T535 520Q535 464 507 423T426 363Q486 346 519 301Z" />
<glyph unicode="4" glyph-name="four" horiz-adv-x="600" d="M585 259V119H493V0H314V119H30V255L346 705H493V259H585ZM194 259H314V432L194 259Z" />
<glyph unicode="5" glyph-name="five" horiz-adv-x="600" d="M413 461T464 433T543 353T572 234Q572 161 537 106T438 22T288 -8Q219 -8 152 12T44 67L101 197Q195 134 290 134Q346 134 373 156T400 227Q400 273 372 297T292 322Q264 322 232 313T172 287H71V705H536V566H250V443Q289
461 348 461Q413 461 464 433Z" />
<glyph unicode="6" glyph-name="six" horiz-adv-x="600" d="M420 464T468 435T543 353T571 234Q571 164 540 109T452 22T324 -9Q183 -9 107 83T30 345Q30 459 67 542T173 669T337 714Q403 714 465 695T571 639L514 509Q468 541 425 556T345 572Q286 572 253 528T214
395Q236 427 275 445T360 464Q420 464 468 435ZM353 132T376 158T399 227Q399 271 377 296T314 322Q275 322 252 296T228 227Q228 185 251 159T314 132Q353 132 376 158Z" />
<glyph unicode="7" glyph-name="seven" horiz-adv-x="600" d="M40 705H561V568L255 0H58L364 559H40V705Z" />
<glyph unicode="8" glyph-name="eight" horiz-adv-x="600" d="M513 345T545 302T578 194Q578 99 504 46T300 -8Q171 -8 97 45T22 194Q22 260 55 303T149 363Q97 383 69 424T41 522Q41 611 111 662T300 714Q420 714 489 663T559 522Q559 464 531 422T452 363Q513
345 545 302ZM255 575T233 558T211 501Q211 462 233 444T300 426Q345 426 367 444T389 501Q389 540 367 557T300 575Q255 575 233 558ZM409 131T409 209Q409 287 300 287Q191 287 191 209Q191 131 300 131Q409 131 409 209Z" />
<glyph unicode="9" glyph-name="nine" horiz-adv-x="600" d="M416 714T493 622T570 360Q570 246 533 163T427 36T263 -9Q196 -9 134 10T29 66L86 196Q132 164 175 149T254 133Q374 133 386 310Q364 278 325 260T240 241Q180 241 132 270T57 352T29 471Q29 541
60 596T148 683T275 714Q416 714 493 622ZM325 383T348 409T372 478Q372 520 348 546T286 573Q247 573 224 547T201 478Q201 434 223 409T286 383Q325 383 348 409Z" />
<glyph unicode=":" glyph-name="colon" horiz-adv-x="272" d="M43 492H228V310H43V492ZM43 182H228V0H43V182Z" />
<glyph unicode=";" glyph-name="semicolon" horiz-adv-x="272" d="M43 492H228V310H43V492ZM43 182H228V67Q228 3 205 -49T127 -155L60 -102Q114 -48 127 0H43V182Z" />
<glyph unicode="&lt;" glyph-name="less" horiz-adv-x="600" d="M544 545V415L213 288L544 161V31L56 222V355L544 545Z" />
<glyph unicode="=" glyph-name="equal" horiz-adv-x="600" d="M544 447V328H56V447H544ZM544 247V128H56V247H544Z" />
<glyph unicode="&gt;" glyph-name="greater" horiz-adv-x="600" d="M56 545L544 355V222L56 31V161L387 288L56 415V545Z" />
<glyph unicode="?" glyph-name="question" horiz-adv-x="478" d="M182 298Q182 345 199 376T248 441Q271 466 282 483T293 523Q293 572 229 572Q192 572 146 555T55 509L-1 639Q39 673 107 693T245 714Q311 714 363 692T444 631T473 540Q473 503 458 473T422 420T366
368Q332 339 315 319T292 277L285 238H182V298ZM144 0V182H329V0H144Z" />
<glyph unicode="@" glyph-name="at" horiz-adv-x="944" d="M347 -161T246 -108T91 42T37 261Q37 403 94 504T253 659T485 712Q617 712 712 665T857 533T907 339Q907 256 882 194T809 97T697 63Q645 63 611 85T566 145H564Q536 106 505 85T422 63Q344 63 303 113T261
246Q261 318 288 376T362 467T470 500Q509 500 538 486T582 441H585L595 492H719L678 270Q673 237 673 217Q673 189 683 175T719 161Q735 161 751 179T779 237T791 339Q791 469 713 539T485 609Q391 609 318 569T203 450T162 261Q162 165 200 94T310 -17T482 -57Q551
-57 600 -42T671 0H832Q794 -72 703 -116T482 -161Q347 -161 246 -108ZM503 161T532 208T562 319Q562 360 544 381T494 402Q444 402 416 354T388 245Q388 208 404 185T450 161Q503 161 532 208Z" />
<glyph unicode="A" glyph-name="A" horiz-adv-x="761" d="M601 0L538 146H226L163 0H-22L307 705H453L783 0H601ZM285 284H479L382 510L285 284Z" />
<glyph unicode="B" glyph-name="B" horiz-adv-x="695" d="M599 347T632 303T665 193Q665 135 635 92T548 24T415 0H64V705H405Q516 705 581 656T647 522Q647 468 618 427T537 366Q599 347 632 303ZM243 428H374Q426 428 450 444T474 495Q474 532 450 549T374 566H243V428ZM447
139T470 156T494 214Q494 254 471 271T392 289H243V139H392Q447 139 470 156Z" />
<glyph unicode="C" glyph-name="C" horiz-adv-x="678" d="M296 -9T215 36T90 163T46 353Q46 461 89 542T214 669T406 714Q475 714 539 693T645 637L588 507Q501 568 410 568Q324 568 279 514T233 353Q233 246 278 192T410 137Q501 137 588 198L645 68Q604 33 540
12T406 -9Q296 -9 215 36Z" />
<glyph unicode="D" glyph-name="D" horiz-adv-x="773" d="M64 705H351Q468 705 552 663T682 542T727 353Q727 243 683 164T554 42T351 0H64V705ZM338 148Q442 148 493 199T544 353Q544 456 493 506T338 557H248V148H338Z" />
<glyph unicode="E" glyph-name="E" horiz-adv-x="597" d="M64 0V705H565V563H243V429H545V288H243V142H565V0H64Z" />
<glyph unicode="F" glyph-name="F" horiz-adv-x="578" d="M64 0V705H555V561H245V431H535V287H245V0H64Z" />
<glyph unicode="G" glyph-name="G" horiz-adv-x="744" d="M688 398V45Q633 19 563 5T420 -9Q305 -9 221 34T91 159T46 353Q46 462 91 544T218 670T412 714Q489 714 556 694T666 639L609 509Q560 541 515 555T419 569Q324 569 278 516T231 353Q231 240 279 186T428
131Q476 131 523 141V272H399V398H688Z" />
<glyph unicode="H" glyph-name="H" horiz-adv-x="776" d="M532 705H712V0H532V285H244V0H64V705H244V431H532V705Z" />
<glyph unicode="I" glyph-name="I" horiz-adv-x="312" d="M64 0V705H248V0H64Z" />
<glyph unicode="J" glyph-name="J" horiz-adv-x="397" d="M-3 136L79 141Q116 143 132 159T148 210V705H333V213Q333 110 278 56T111 -6L8 -11L-3 136Z" />
<glyph unicode="K" glyph-name="K" horiz-adv-x="698" d="M750 0H532L248 319V0H64V705H248V402L524 705H739L428 370L750 0Z" />
<glyph unicode="L" glyph-name="L" horiz-adv-x="572" d="M64 0V705H248V149H548V0H64Z" />
<glyph unicode="M" glyph-name="M" horiz-adv-x="842" d="M634 705H776V0H616V370L480 117H362L227 364L226 0H66V705H211L423 304L634 705Z" />
<glyph unicode="N" glyph-name="N" horiz-adv-x="757" d="M521 705H693V0H557L235 403V0H64V705H198L521 302V705Z" />
<glyph unicode="O" glyph-name="O" horiz-adv-x="796" d="M291 -9T212 35T89 161T46 353Q46 463 89 544T211 670T399 714Q507 714 586 670T708 545T751 353Q751 243 708 162T586 36T399 -9Q291 -9 212 35ZM479 132T524 188T569 353Q569 461 524 517T399 573Q319
573 274 518T229 353Q229 244 274 188T399 132Q479 132 524 188Z" />
<glyph unicode="P" glyph-name="P" horiz-adv-x="677" d="M64 705H405Q522 705 587 646T652 480Q652 375 587 315T405 255H248V0H64V705ZM380 393Q431 393 455 414T480 479Q480 523 456 544T380 566H248V393H380Z" />
<glyph unicode="Q" glyph-name="Q" horiz-adv-x="796" d="M635 23T666 -28L744 -155L587 -226L475 -43Q454 -9 399 -9Q291 -9 212 35T89 161T46 353Q46 463 89 544T211 670T399 714Q507 714 586 670T708 545T751 353Q751 244 708 162T585 36Q635 23 666 -28ZM479
132T524 188T569 353Q569 461 524 517T399 573Q319 573 274 518T229 353Q229 244 274 188T399 132Q479 132 524 188Z" />
<glyph unicode="R" glyph-name="R" horiz-adv-x="707" d="M698 0H496L374 225Q351 264 301 264H245V0H64V705H400Q528 705 592 650T657 489Q657 409 613 354T489 279Q550 266 586 200L698 0ZM432 402T458 421T485 483Q485 527 459 546T371 566H243V402H371Q432
402 458 421Z" />
<glyph unicode="S" glyph-name="S" horiz-adv-x="664" d="M240 -9T163 12T38 68L95 198Q146 166 204 149T321 132Q381 132 412 148T444 195Q444 222 416 239T307 273Q208 294 152 323T74 391T51 487Q51 552 87 603T190 684T343 714Q419 714 490 693T602 637L546
507Q450 573 344 573Q293 573 262 554T231 502Q231 483 242 471T283 448T372 424Q468 403 523 374T601 305T624 212Q624 108 544 50T319 -9Q240 -9 163 12Z" />
<glyph unicode="T" glyph-name="T" horiz-adv-x="632" d="M223 0V556H12V705H620V556H409V0H223Z" />
<glyph unicode="U" glyph-name="U" horiz-adv-x="745" d="M219 -9T140 69T60 297V705H240V290Q240 214 274 173T372 132Q436 132 470 173T504 290V705H685V297Q685 148 605 70T372 -9Q219 -9 140 69Z" />
<glyph unicode="V" glyph-name="V" horiz-adv-x="743" d="M579 705H765L444 0H298L-23 705H168L373 229L579 705Z" />
<glyph unicode="W" glyph-name="W" horiz-adv-x="1121" d="M934 705H1108L856 0H710L561 423L410 0H263L12 705H199L345 258L503 705H630L781 250L934 705Z" />
<glyph unicode="X" glyph-name="X" horiz-adv-x="686" d="M446 356L716 0H501L342 222L182 0H-31L238 356L-26 705H188L342 489L498 705H711L446 356Z" />
<glyph unicode="Y" glyph-name="Y" horiz-adv-x="650" d="M715 705L417 314V0H233V314L-63 705H144L324 460L506 705H715Z" />
<glyph unicode="Z" glyph-name="Z" horiz-adv-x="617" d="M255 144H583V0H52V135L365 561H52V705H571V573L255 144Z" />
<glyph unicode="[" glyph-name="bracketleft" horiz-adv-x="396" d="M102 -180V705H378V574H276V-49H378V-180H102Z" />
<glyph unicode="\" glyph-name="backslash" horiz-adv-x="348" d="M239 -82L-21 731L109 770L369 -43L239 -82Z" />
<glyph unicode="]" glyph-name="bracketright" horiz-adv-x="396" d="M293 -180H17V-49H120V574H17V705H293V-180Z" />
<glyph unicode="^" glyph-name="asciicircum" horiz-adv-x="600" d="M557 144H427L300 476L173 144H43L234 632H366L557 144Z" />
<glyph unicode="_" glyph-name="underscore" horiz-adv-x="500" d="M17 -101V0H483V-101H17Z" />
<glyph unicode="`" glyph-name="grave" horiz-adv-x="300" d="M96 556L-62 762H106L204 556H96Z" />
<glyph unicode="a" glyph-name="a" horiz-adv-x="552" d="M393 504T448 451T504 284V0H337V69Q323 33 290 13T211 -8Q160 -8 119 12T55 69T31 152Q31 205 58 236T146 282T308 296H335V308Q335 345 318 359T258 374Q224 374 180 361T96 326L51 443Q94 469 158 486T277
504Q393 504 448 451ZM289 111T312 136T335 202V214H319Q255 214 228 203T201 164Q201 141 215 126T253 111Q289 111 312 136Z" />
<glyph unicode="b" glyph-name="b" horiz-adv-x="625" d="M442 504T491 473T567 385T595 251Q595 175 568 116T491 25T378 -8Q329 -8 289 12T227 67V0H52V705H230V434Q252 466 291 485T378 504Q442 504 491 473ZM369 125T394 157T419 251Q419 309 395 340T324
371Q277 371 252 340T227 249Q227 189 252 157T323 125Q369 125 394 157Z" />
<glyph unicode="c" glyph-name="c" horiz-adv-x="500" d="M171 -8T100 60T29 245Q29 322 63 381T160 472T305 504Q360 504 411 488T495 445L450 325Q425 345 390 357T323 370Q269 370 241 340T212 249Q212 188 240 157T323 126Q354 126 389 138T450 172L495 51Q461
23 409 8T297 -8Q171 -8 100 60Z" />
<glyph unicode="d" glyph-name="d" horiz-adv-x="625" d="M573 705V0H398V67Q377 32 337 12T247 -8Q184 -8 135 24T57 116T29 251Q29 327 56 384T133 473T247 504Q294 504 333 485T395 434V705H573ZM348 125T373 157T398 249Q398 308 373 339T301 371Q255 371
230 340T205 251Q205 191 230 158T301 125Q348 125 373 157Z" />
<glyph unicode="e" glyph-name="e" horiz-adv-x="535" d="M506 212H202Q210 164 237 143T314 122Q350 122 387 134T453 167L498 50Q461 23 409 8T305 -8Q220 -8 158 23T63 112T29 248Q29 322 60 380T148 471T276 504Q382 504 444 437T506 252V212ZM210 384T200
296H357Q351 384 281 384Q210 384 200 296Z" />
<glyph unicode="f" glyph-name="f" horiz-adv-x="394" d="M273 492H391V361H273V0H95V361H3V492H95Q100 595 162 647T350 707L411 711L421 582L374 580Q317 578 295 563T273 510V492Z" />
<glyph unicode="g" glyph-name="g" horiz-adv-x="629" d="M577 492V60Q577 -62 505 -125T290 -188Q223 -188 160 -173T51 -129L96 -8Q142 -32 191 -45T285 -58Q344 -58 372 -33T401 48V86Q379 53 338 34T249 14Q185 14 135 44T57 129T29 258Q29 331 57 387T135
473T249 504Q298 504 339 484T402 429V492H577ZM350 147T376 176T402 258Q402 311 376 341T303 371Q257 371 231 342T205 258Q205 206 231 177T303 147Q350 147 376 176Z" />
<glyph unicode="h" glyph-name="h" horiz-adv-x="605" d="M471 504T514 452T557 292V0H379V284Q379 328 364 348T317 368Q277 368 254 343T230 274V0H52V705H230V433Q257 468 296 486T383 504Q471 504 514 452Z" />
<glyph unicode="i" glyph-name="i" horiz-adv-x="281" d="M52 0V492H230V0H52ZM48 738H234V577H48V738Z" />
<glyph unicode="j" glyph-name="j" horiz-adv-x="281" d="M230 43Q230 -38 207 -85T132 -155T-11 -184L-60 -187L-72 -61L-18 -57Q21 -54 36 -40T52 8V492H230V43ZM46 738H232V577H46V738Z" />
<glyph unicode="k" glyph-name="k" horiz-adv-x="580" d="M610 0H395L230 209V0H52V705H230V290L392 491H603L411 257L610 0Z" />
<glyph unicode="l" glyph-name="l" horiz-adv-x="281" d="M52 0V705H230V0H52Z" />
<glyph unicode="m" glyph-name="m" horiz-adv-x="897" d="M766 504T807 452T849 292V0H671V287Q671 330 658 349T615 368Q578 368 559 342T539 268V0H361V287Q361 330 348 349T305 368Q268 368 249 342T230 268V0H52V492H225V430Q274 504 375 504Q481 504 518
417Q544 458 586 481T680 504Q766 504 807 452Z" />
<glyph unicode="n" glyph-name="n" horiz-adv-x="605" d="M471 504T514 452T557 292V0H379V284Q379 328 364 348T317 368Q277 368 254 343T230 274V0H52V492H225V426Q251 464 292 484T383 504Q471 504 514 452Z" />
<glyph unicode="o" glyph-name="o" horiz-adv-x="600" d="M219 -8T158 23T63 113T29 249Q29 327 62 384T157 473T300 504Q382 504 443 473T537 385T571 249Q571 171 538 113T443 24T300 -8Q219 -8 158 23ZM395 125T395 249Q395 373 300 373Q205 373 205 249Q205
125 300 125Q395 125 395 249Z" />
<glyph unicode="p" glyph-name="p" horiz-adv-x="625" d="M441 504T490 472T567 380T595 245Q595 169 568 112T491 23T378 -8Q331 -8 292 11T230 62V-180H52V492H227V429Q248 464 288 484T378 504Q441 504 490 472ZM370 125T394 156T419 245Q419 306 394 338T323
371Q277 371 252 339T227 247Q227 188 252 157T324 125Q370 125 394 156Z" />
<glyph unicode="q" glyph-name="q" horiz-adv-x="625" d="M573 492V-180H395V62Q373 30 334 11T247 -8Q183 -8 134 23T57 111T29 245Q29 321 57 380T134 471T247 504Q296 504 336 484T398 429V492H573ZM348 125T373 156T398 247Q398 307 373 339T301 371Q256 371
231 338T205 245Q205 187 230 156T301 125Q348 125 373 156Z" />
<glyph unicode="r" glyph-name="r" horiz-adv-x="419" d="M431 359L334 349Q276 343 253 318T230 247V0H52V492H221V407Q238 452 277 475T372 502L421 506L431 359Z" />
<glyph unicode="s" glyph-name="s" horiz-adv-x="490" d="M179 -8T119 7T18 51L63 172Q103 146 154 131T252 115Q281 115 297 123T313 147Q313 160 302 167T255 182L176 200Q101 217 68 250T35 344Q35 391 63 427T141 484T256 504Q309 504 361 489T457 445L411
329Q371 354 331 367T254 381Q225 381 209 372T193 346Q193 336 203 330T238 317L321 298Q399 281 434 246T469 149Q469 76 411 34T250 -8Q179 -8 119 7Z" />
<glyph unicode="t" glyph-name="t" horiz-adv-x="405" d="M368 120T395 123L386 -4Q354 -8 324 -8Q204 -8 150 42T95 199V361H3V492H95V635H273V492H391V361H273V198Q273 120 346 120Q368 120 395 123Z" />
<glyph unicode="u" glyph-name="u" horiz-adv-x="600" d="M548 492V0H375V66Q352 30 317 11T235 -8Q140 -8 94 44T48 204V492H226V200Q226 128 288 128Q324 128 347 154T370 222V492H548Z" />
<glyph unicode="v" glyph-name="v" horiz-adv-x="541" d="M388 491H562L343 0H196L-20 491H166L274 214L388 491Z" />
<glyph unicode="w" glyph-name="w" horiz-adv-x="872" d="M711 492H883L677 0H531L433 241L341 0H194L-12 492H168L277 213L383 492H497L604 208L711 492Z" />
<glyph unicode="x" glyph-name="x" horiz-adv-x="549" d="M376 254L585 0H377L274 130L171 0H-36L173 254L-24 492H185L274 376L364 492H573L376 254Z" />
<glyph unicode="y" glyph-name="y" horiz-adv-x="541" d="M388 491H562L262 -180H82L181 34L-20 491H166L274 214L388 491Z" />
<glyph unicode="z" glyph-name="z" horiz-adv-x="519" d="M251 131H488V0H45V125L266 361H45V492H478V375L251 131Z" />
<glyph unicode="{" glyph-name="braceleft" horiz-adv-x="433" d="M313 338T287 304T226 262Q260 254 286 220T313 140V-6Q313 -30 323 -39T353 -49H415V-180H285Q217 -180 178 -142T139 -35V118Q139 157 127 174T83 194L36 198V325L83 330Q114 333 126 350T139
406V560Q139 628 178 666T285 705H415V574H353Q333 574 323 565T313 531V384Q313 338 287 304Z" />
<glyph unicode="|" glyph-name="bar" horiz-adv-x="301" d="M69 -180V705H232V-180H69Z" />
<glyph unicode="}" glyph-name="braceright" horiz-adv-x="433" d="M396 325V198L350 194Q318 191 306 174T293 118V-35Q293 -103 255 -141T148 -180H17V-49H80Q100 -49 110 -40T120 -6V140Q120 186 146 220T206 262Q172 270 146 304T120 384V531Q120 555 110
564T80 574H17V705H148Q216 705 254 667T293 560V406Q293 367 305 350T350 330L396 325Z" />
<glyph unicode="~" glyph-name="asciitilde" horiz-adv-x="600" d="M544 312Q529 261 489 231T403 200Q374 200 347 210T283 238Q255 251 239 257T208 264Q163 264 143 206L56 264Q71 315 111 345T197 376Q225 376 251 367T317 339Q345 326 361 320T392 313Q415
313 431 326T457 370L544 312Z" />
<glyph unicode="&#xa0;" glyph-name="uni00A0" horiz-adv-x="286" />
<glyph unicode="&#xa1;" glyph-name="exclamdown" horiz-adv-x="272" d="M43 310V492H228V310H43ZM82 248H189L245 -179L27 -180L82 248Z" />
<glyph unicode="&#xa2;" glyph-name="cent" horiz-adv-x="600" d="M537 51Q510 29 471 15T385 -5V-115H245V4Q163 27 117 90T71 245Q71 333 118 397T245 489V611H385V502Q430 497 470 483T537 445L492 325Q467 345 432 357T365 370Q311 370 283 340T254 249Q254
188 282 157T365 126Q396 126 431 138T492 172L537 51Z" />
<glyph unicode="&#xa3;" glyph-name="sterling" horiz-adv-x="600" d="M284 146H573V0H39V146H102V301H39V405H102V512Q102 571 132 617T217 688T343 714Q413 714 475 695T585 639L528 509Q426 572 359 572Q322 572 303 554T284 500V405H438V301H284V146Z" />
<glyph unicode="&#xa4;" glyph-name="currency" horiz-adv-x="600" d="M540 166T496 103L551 46L491 -13L438 42Q374 -3 297 -3Q221 -3 159 40L106 -14L46 46L99 101Q54 167 54 245Q54 325 99 389L46 444L107 505L160 450Q222 493 297 493Q372 493 433 451L487
508L553 442L498 385Q540 320 540 245Q540 166 496 103ZM340 134T371 166T402 245Q402 291 371 323T296 356Q253 356 223 323T192 245Q192 199 222 167T298 134Q340 134 371 166Z" />
<glyph unicode="&#xa5;" glyph-name="yen" horiz-adv-x="600" d="M630 705L434 410H537V305H391V255H537V150H391V0H207V150H63V255H207V305H63V410H165L-30 705H167L300 488L433 705H630Z" />
<glyph unicode="&#xa6;" glyph-name="brokenbar" horiz-adv-x="301" d="M69 371V705H232V371H69ZM69 -180V154H232V-180H69Z" />
<glyph unicode="&#xa7;" glyph-name="section" horiz-adv-x="597" d="M570 150T501 92Q530 50 530 10Q530 -86 467 -136T283 -187Q212 -187 153 -172T54 -127L99 -6Q139 -31 184 -45T271 -59Q310 -59 333 -45T356 -7Q356 11 345 23T304 49L159 113Q92 141 60 183T27
288Q27 375 97 434Q67 475 67 515Q67 607 134 659T320 712Q442 712 525 654L480 538Q448 560 408 572T329 585Q287 585 264 572T240 533Q240 498 292 476L436 412Q570 355 570 238Q570 150 501 92ZM401 172Q405 170 406 170Q414 184 414 196Q414 223 396 246T344
285L195 356L191 358Q182 338 182 329Q182 302 200 279T253 241L401 172Z" />
<glyph unicode="&#xa8;" glyph-name="dieresis" horiz-adv-x="300" d="M-28 732H130V583H-28V732ZM170 732H328V583H170V732Z" />
<glyph unicode="&#xa9;" glyph-name="copyright" horiz-adv-x="815" d="M308 -5T226 42T97 171T50 353Q50 453 97 534T226 663T408 710Q508 710 589 663T718 535T765 353Q765 253 718 172T589 43T408 -5Q308 -5 226 42ZM490 63T554 101T655 205T692 353Q692 435
656 501T555 604T408 642Q326 642 261 605T160 501T123 353Q123 271 159 205T261 101T408 63Q490 63 554 101ZM322 137T262 195T201 353Q201 451 261 509T425 568Q472 568 512 557T582 523L545 416Q531 426 504 436T452 446Q409 446 385 422T361 353Q361 308 385
284T452 259Q476 259 503 269T545 289L582 182Q522 137 425 137Q322 137 262 195Z" />
<glyph unicode="&#xaa;" glyph-name="ordfeminine" horiz-adv-x="343" d="M253 710T291 675T329 565V404H194V455Q184 427 163 413T112 399Q68 399 40 429T11 497Q11 539 47 560T167 582H192V590Q192 599 184 603T153 607Q108 607 60 587L36 686Q92 710 172 710Q253
710 291 675ZM173 489T182 496T192 517V521H183Q138 521 138 502Q138 496 143 493T158 489Q173 489 182 496Z" />
<glyph unicode="&#xab;" glyph-name="guillemotleft" horiz-adv-x="558" d="M169 60L62 223V309L166 472L283 418L214 266L283 113L169 60ZM407 60L300 223V309L404 472L521 418L452 266L521 113L407 60Z" />
<glyph unicode="&#xac;" glyph-name="logicalnot" horiz-adv-x="600" d="M544 446V129H421V327H56V446H544Z" />
<glyph unicode="&#xad;" glyph-name="uni00AD" horiz-adv-x="446" d="M63 199V338H383V199H63Z" />
<glyph unicode="&#xae;" glyph-name="registered" horiz-adv-x="815" d="M508 710T589 663T718 535T765 353Q765 253 718 172T589 43T408 -5Q308 -5 226 42T97 171T50 353Q50 453 97 534T226 663T408 710Q508 710 589 663ZM657 198T674 247T692 353Q692 435 656
501T555 604T408 642Q326 642 261 605T160 501T123 353Q123 271 159 205T261 101T408 63Q467 63 518 83T608 142H458L396 278Q393 286 391 286H379V142H224V565H436Q516 565 559 528T602 427Q602 381 577 347T506 298Q529 296 550 283T582 245L624 159Q657 198
674 247ZM436 391T445 397T455 419Q455 436 446 442T416 449H377V391H416Q436 391 445 397Z" />
<glyph unicode="&#xaf;" glyph-name="overscore" horiz-adv-x="300" d="M-9 604V710H309V604H-9Z" />
<glyph unicode="&#xb0;" glyph-name="degree" horiz-adv-x="369" d="M140 405T105 424T49 479T28 557Q28 600 48 635T105 690T184 710Q228 710 264 690T320 635T341 557Q341 514 321 479T264 425T184 405Q140 405 105 424ZM211 490T230 509T249 557Q249 587 230
606T184 625Q157 625 139 606T120 557Q120 528 138 509T184 490Q211 490 230 509Z" />
<glyph unicode="&#xb1;" glyph-name="plusminus" horiz-adv-x="600" d="M359 401H544V281H359V150H241V281H56V401H241V532H359V401ZM56 0V119H544V0H56Z" />
<glyph unicode="&#xb2;" glyph-name="uni00B2" horiz-adv-x="380" d="M354 399V282H41V392L169 524Q197 556 197 573Q197 597 158 597Q107 597 47 566L29 675Q57 690 101 699T187 709Q259 709 303 675T348 583Q348 547 331 516T264 442L211 399H354Z" />
<glyph unicode="&#xb3;" glyph-name="uni00B3" horiz-adv-x="380" d="M319 490T340 463T361 399Q361 367 342 339T282 294T183 277Q140 277 95 286T22 311L41 419Q103 389 168 389Q221 389 221 414Q221 437 177 437H100V551H165Q189 551 198 556T208 574Q208 597
165 597Q138 597 107 589T47 566L29 675Q56 690 99 699T178 709Q259 709 303 675T348 588Q348 557 332 534T283 501Q319 490 340 463Z" />
<glyph unicode="&#xb4;" glyph-name="acute" horiz-adv-x="300" d="M204 556H96L194 762H362L204 556Z" />
<glyph unicode="&#xb5;" glyph-name="uni00B5" horiz-adv-x="600" d="M548 492V0H375V66Q352 30 317 11T235 -8H226V-180H48V492H226V200Q226 128 288 128Q324 128 347 154T370 222V492H548Z" />
<glyph unicode="&#xb6;" glyph-name="paragraph" horiz-adv-x="648" d="M584 -180H470V604H368V-180H255V248Q187 248 135 276T54 357T25 477Q25 545 54 597T136 677T258 705H584V-180Z" />
<glyph unicode="&#xb7;" glyph-name="middot" horiz-adv-x="272" d="M43 360H228V178H43V360Z" />
<glyph unicode="&#xb8;" glyph-name="cedilla" horiz-adv-x="300" d="M227 -40T249 -58T272 -109Q272 -149 236 -173T130 -198Q109 -198 82 -194T35 -181L45 -117Q93 -131 125 -131Q167 -131 167 -109Q167 -92 136 -92Q124 -92 104 -97L84 -75L96 20H187L177 -40H186Q227
-40 249 -58Z" />
<glyph unicode="&#xb9;" glyph-name="uni00B9" horiz-adv-x="380" d="M293 399H375V282H60V399H141V548L75 514L19 617L188 705H293V399Z" />
<glyph unicode="&#xba;" glyph-name="ordmasculine" horiz-adv-x="386" d="M104 399T59 444T13 555Q13 620 58 665T193 710Q283 710 328 665T373 555Q373 489 328 444T193 399Q104 399 59 444ZM211 511T222 523T234 555Q234 599 193 599Q155 599 155 555Q155 535
165 523T193 511Q211 511 222 523Z" />
<glyph unicode="&#xbb;" glyph-name="guillemotright" horiz-adv-x="550" d="M151 60L37 113L106 266L37 418L153 472L257 309V223L151 60ZM389 60L275 113L344 266L275 418L391 472L495 309V223L389 60Z" />
<glyph unicode="&#xbc;" glyph-name="onequarter" horiz-adv-x="970" d="M633 737L745 671L337 -32L225 34L369 282H60V399H141V548L75 514L19 617L188 705H293V399H375V292L633 737ZM969 162V56H911V0H780V56H596V158L794 423H911V162H969ZM714 162H780V248L714 162Z" />
<glyph unicode="&#xbd;" glyph-name="onehalf" horiz-adv-x="970" d="M633 737L745 671L337 -32L225 34L369 282H60V399H141V548L75 514L19 617L188 705H293V399H375V292L633 737ZM944 117V0H631V110L759 242Q787 274 787 291Q787 315 748 315Q697 315 637 284L619
393Q647 408 691 417T777 427Q849 427 893 393T938 301Q938 265 921 234T854 160L801 117H944Z" />
<glyph unicode="&#xbe;" glyph-name="threequarters" horiz-adv-x="970" d="M319 490T340 463T361 399Q361 367 342 339T282 294T183 277Q140 277 95 286T22 311L41 419Q103 389 168 389Q221 389 221 414Q221 437 177 437H100V551H165Q189 551 198 556T208 574Q208
597 165 597Q138 597 107 589T47 566L29 675Q56 690 99 699T178 709Q259 709 303 675T348 588Q348 557 332 534T283 501Q319 490 340 463ZM337 -32L225 34L633 737L745 671L337 -32ZM969 162V56H911V0H780V56H596V158L794 423H911V162H969ZM714 162H780V248L714
162Z" />
<glyph unicode="&#xbf;" glyph-name="questiondown" horiz-adv-x="478" d="M149 310V492H334V310H149ZM171 -188T119 -168T36 -108T5 -13Q5 20 20 46T56 91T111 135Q147 162 164 178T186 215L193 254H296V194Q296 147 278 120T226 64Q204 45 195 33T185 4Q185
-46 249 -46Q284 -46 330 -30T423 18L479 -113Q436 -148 368 -168T233 -188Q171 -188 119 -168Z" />
<glyph unicode="&#xc0;" glyph-name="Agrave" horiz-adv-x="761" d="M601 0L538 146H226L163 0H-22L307 705H453L783 0H601ZM285 284H479L382 510L285 284ZM326 765L171 922H330L434 765H326Z" />
<glyph unicode="&#xc1;" glyph-name="Aacute" horiz-adv-x="761" d="M601 0L538 146H226L163 0H-22L307 705H453L783 0H601ZM285 284H479L382 510L285 284ZM434 765H326L430 922H589L434 765Z" />
<glyph unicode="&#xc2;" glyph-name="Acircumflex" horiz-adv-x="761" d="M601 0L538 146H226L163 0H-22L307 705H453L783 0H601ZM285 284H479L382 510L285 284ZM322 765H194L331 922H429L566 765H438L380 843L322 765Z" />
<glyph unicode="&#xc3;" glyph-name="Atilde" horiz-adv-x="761" d="M601 0L538 146H226L163 0H-22L307 705H453L783 0H601ZM285 284H479L382 510L285 284ZM201 845T234 884T317 924Q334 924 350 918T390 897Q410 885 422 880T446 874Q463 874 473 886T487 921H559Q559
842 526 803T443 763Q426 763 409 770T370 791Q350 803 338 808T314 814Q297 814 287 802T273 766H201Q201 845 234 884Z" />
<glyph unicode="&#xc4;" glyph-name="Adieresis" horiz-adv-x="761" d="M601 0L538 146H226L163 0H-22L307 705H453L783 0H601ZM285 284H479L382 510L285 284ZM202 919H360V769H202V919ZM400 919H558V769H400V919Z" />
<glyph unicode="&#xc5;" glyph-name="Aring" horiz-adv-x="761" d="M538 146H226L163 0H-22L304 698Q287 713 278 734T268 780Q268 826 301 858T381 890Q428 890 460 858T493 780Q493 756 484 734T457 697L783 0H601L538 146ZM363 823T351 811T339 780Q339 761
351 749T381 736Q399 736 410 748T422 780Q422 798 411 810T381 823Q363 823 351 811ZM285 284H479L382 510L285 284Z" />
<glyph unicode="&#xc6;" glyph-name="AE" horiz-adv-x="1004" d="M972 564H600L631 429H952V288H663L696 141H972V0H560L527 146H244L158 0H-42L408 705H972V564ZM326 284H497L450 493L326 284Z" />
<glyph unicode="&#xc7;" glyph-name="Ccedilla" horiz-adv-x="678" d="M609 36T552 16T432 -8L426 -40H435Q476 -40 498 -58T521 -109Q521 -149 485 -173T379 -198Q358 -198 331 -194T284 -181L294 -117Q342 -131 374 -131Q416 -131 416 -109Q416 -92 385 -92Q373
-92 353 -97L333 -75L342 -5Q250 8 184 56T82 180T46 353Q46 461 89 542T214 669T406 714Q475 714 539 693T645 637L588 507Q501 568 410 568Q324 568 279 514T233 353Q233 246 278 192T410 137Q501 137 588 198L645 68Q609 36 552 16Z" />
<glyph unicode="&#xc8;" glyph-name="Egrave" horiz-adv-x="597" d="M64 0V705H565V563H243V429H545V288H243V142H565V0H64ZM279 765L124 922H283L387 765H279Z" />
<glyph unicode="&#xc9;" glyph-name="Eacute" horiz-adv-x="597" d="M64 0V705H565V563H243V429H545V288H243V142H565V0H64ZM387 765H279L383 922H542L387 765Z" />
<glyph unicode="&#xca;" glyph-name="Ecircumflex" horiz-adv-x="597" d="M64 0V705H565V563H243V429H545V288H243V142H565V0H64ZM275 765H147L284 922H382L519 765H391L333 843L275 765Z" />
<glyph unicode="&#xcb;" glyph-name="Edieresis" horiz-adv-x="597" d="M64 0V705H565V563H243V429H545V288H243V142H565V0H64ZM155 919H313V769H155V919ZM353 919H511V769H353V919Z" />
<glyph unicode="&#xcc;" glyph-name="Igrave" horiz-adv-x="312" d="M64 0V705H248V0H64ZM101 765L-54 922H105L209 765H101Z" />
<glyph unicode="&#xcd;" glyph-name="Iacute" horiz-adv-x="312" d="M64 0V705H248V0H64ZM209 765H101L205 922H364L209 765Z" />
<glyph unicode="&#xce;" glyph-name="Icircumflex" horiz-adv-x="312" d="M64 0V705H248V0H64ZM97 765H-31L106 922H204L341 765H213L155 843L97 765Z" />
<glyph unicode="&#xcf;" glyph-name="Idieresis" horiz-adv-x="312" d="M64 0V705H248V0H64ZM-23 919H135V769H-23V919ZM175 919H333V769H175V919Z" />
<glyph unicode="&#xd0;" glyph-name="Eth" horiz-adv-x="809" d="M504 705T588 663T718 542T763 353Q763 243 719 164T590 42T387 0H100V286H17V425H100V705H387Q504 705 588 663ZM478 148T529 198T580 353Q580 456 529 506T374 557H284V425H467V286H284V148H374Q478
148 529 198Z" />
<glyph unicode="&#xd1;" glyph-name="Ntilde" horiz-adv-x="757" d="M521 705H693V0H557L235 403V0H64V705H198L521 302V705ZM199 845T232 884T315 924Q332 924 348 918T388 897Q408 885 420 880T444 874Q461 874 471 886T485 921H557Q557 842 524 803T441 763Q424
763 407 770T368 791Q348 803 336 808T312 814Q295 814 285 802T271 766H199Q199 845 232 884Z" />
<glyph unicode="&#xd2;" glyph-name="Ograve" horiz-adv-x="796" d="M291 -9T212 35T89 161T46 353Q46 463 89 544T211 670T399 714Q507 714 586 670T708 545T751 353Q751 243 708 162T586 36T399 -9Q291 -9 212 35ZM479 132T524 188T569 353Q569 461 524 517T399
573Q319 573 274 518T229 353Q229 244 274 188T399 132Q479 132 524 188ZM344 765L189 922H348L452 765H344Z" />
<glyph unicode="&#xd3;" glyph-name="Oacute" horiz-adv-x="796" d="M291 -9T212 35T89 161T46 353Q46 463 89 544T211 670T399 714Q507 714 586 670T708 545T751 353Q751 243 708 162T586 36T399 -9Q291 -9 212 35ZM479 132T524 188T569 353Q569 461 524 517T399
573Q319 573 274 518T229 353Q229 244 274 188T399 132Q479 132 524 188ZM452 765H344L448 922H607L452 765Z" />
<glyph unicode="&#xd4;" glyph-name="Ocircumflex" horiz-adv-x="796" d="M291 -9T212 35T89 161T46 353Q46 463 89 544T211 670T399 714Q507 714 586 670T708 545T751 353Q751 243 708 162T586 36T399 -9Q291 -9 212 35ZM479 132T524 188T569 353Q569 461 524
517T399 573Q319 573 274 518T229 353Q229 244 274 188T399 132Q479 132 524 188ZM340 765H212L349 922H447L584 765H456L398 843L340 765Z" />
<glyph unicode="&#xd5;" glyph-name="Otilde" horiz-adv-x="796" d="M291 -9T212 35T89 161T46 353Q46 463 89 544T211 670T399 714Q507 714 586 670T708 545T751 353Q751 243 708 162T586 36T399 -9Q291 -9 212 35ZM479 132T524 188T569 353Q569 461 524 517T399
573Q319 573 274 518T229 353Q229 244 274 188T399 132Q479 132 524 188ZM219 845T252 884T335 924Q352 924 368 918T408 897Q428 885 440 880T464 874Q481 874 491 886T505 921H577Q577 842 544 803T461 763Q444 763 427 770T388 791Q368 803 356 808T332 814Q315
814 305 802T291 766H219Q219 845 252 884Z" />
<glyph unicode="&#xd6;" glyph-name="Odieresis" horiz-adv-x="796" d="M291 -9T212 35T89 161T46 353Q46 463 89 544T211 670T399 714Q507 714 586 670T708 545T751 353Q751 243 708 162T586 36T399 -9Q291 -9 212 35ZM479 132T524 188T569 353Q569 461 524 517T399
573Q319 573 274 518T229 353Q229 244 274 188T399 132Q479 132 524 188ZM220 919H378V769H220V919ZM418 919H576V769H418V919Z" />
<glyph unicode="&#xd7;" glyph-name="multiply" horiz-adv-x="600" d="M534 438L384 288L534 138L450 54L300 204L150 54L66 138L216 288L66 438L150 522L300 372L450 522L534 438Z" />
<glyph unicode="&#xd8;" glyph-name="Oslash" horiz-adv-x="796" d="M693 585T722 514T751 353Q751 243 708 162T586 36T399 -9Q333 -9 276 8L227 -75L112 -6L158 73Q104 121 75 192T46 353Q46 463 89 544T211 670T399 714Q464 714 521 697L569 780L685 711L639
633Q693 585 722 514ZM229 279T250 231L445 567Q424 573 399 573Q319 573 274 518T229 353Q229 279 250 231ZM479 132T524 188T569 353Q569 427 548 475L351 138Q374 132 399 132Q479 132 524 188Z" />
<glyph unicode="&#xd9;" glyph-name="Ugrave" horiz-adv-x="745" d="M219 -9T140 69T60 297V705H240V290Q240 214 274 173T372 132Q436 132 470 173T504 290V705H685V297Q685 148 605 70T372 -9Q219 -9 140 69ZM318 765L163 922H322L426 765H318Z" />
<glyph unicode="&#xda;" glyph-name="Uacute" horiz-adv-x="745" d="M219 -9T140 69T60 297V705H240V290Q240 214 274 173T372 132Q436 132 470 173T504 290V705H685V297Q685 148 605 70T372 -9Q219 -9 140 69ZM426 765H318L422 922H581L426 765Z" />
<glyph unicode="&#xdb;" glyph-name="Ucircumflex" horiz-adv-x="745" d="M219 -9T140 69T60 297V705H240V290Q240 214 274 173T372 132Q436 132 470 173T504 290V705H685V297Q685 148 605 70T372 -9Q219 -9 140 69ZM314 765H186L323 922H421L558 765H430L372
843L314 765Z" />
<glyph unicode="&#xdc;" glyph-name="Udieresis" horiz-adv-x="745" d="M219 -9T140 69T60 297V705H240V290Q240 214 274 173T372 132Q436 132 470 173T504 290V705H685V297Q685 148 605 70T372 -9Q219 -9 140 69ZM194 919H352V769H194V919ZM392 919H550V769H392V919Z" />
<glyph unicode="&#xdd;" glyph-name="Yacute" horiz-adv-x="650" d="M715 705L417 314V0H233V314L-63 705H144L324 460L506 705H715ZM379 765H271L375 922H534L379 765Z" />
<glyph unicode="&#xde;" glyph-name="Thorn" horiz-adv-x="679" d="M520 568T586 512T652 358Q652 261 586 205T404 148H244V0H64V705H244V568H404Q520 568 586 512ZM429 287T454 303T480 358Q480 395 454 412T372 429H244V287H372Q429 287 454 303Z" />
<glyph unicode="&#xdf;" glyph-name="germandbls" horiz-adv-x="703" d="M52 432Q52 569 128 641T346 714Q452 714 511 673T570 559Q570 522 553 493T505 430Q485 408 475 393T464 362Q464 346 481 337T534 318Q580 304 610 290T663 245T686 164Q686 85 629 39T475
-8Q415 -8 360 7T265 51L310 172Q351 148 395 134T475 120Q526 120 526 149Q526 166 508 176T452 197Q406 212 377 226T326 268T304 343Q304 381 320 410T367 476Q386 498 395 513T405 542Q405 589 337 589Q286 589 258 556T230 460V0H52V432Z" />
<glyph unicode="&#xe0;" glyph-name="agrave" horiz-adv-x="552" d="M393 504T448 451T504 284V0H337V69Q323 33 290 13T211 -8Q160 -8 119 12T55 69T31 152Q31 205 58 236T146 282T308 296H335V308Q335 345 318 359T258 374Q224 374 180 361T96 326L51 443Q94
469 158 486T277 504Q393 504 448 451ZM289 111T312 136T335 202V214H319Q255 214 228 203T201 164Q201 141 215 126T253 111Q289 111 312 136ZM227 556L69 762H237L335 556H227Z" />
<glyph unicode="&#xe1;" glyph-name="aacute" horiz-adv-x="552" d="M393 504T448 451T504 284V0H337V69Q323 33 290 13T211 -8Q160 -8 119 12T55 69T31 152Q31 205 58 236T146 282T308 296H335V308Q335 345 318 359T258 374Q224 374 180 361T96 326L51 443Q94
469 158 486T277 504Q393 504 448 451ZM289 111T312 136T335 202V214H319Q255 214 228 203T201 164Q201 141 215 126T253 111Q289 111 312 136ZM335 556H227L325 762H493L335 556Z" />
<glyph unicode="&#xe2;" glyph-name="acircumflex" horiz-adv-x="552" d="M393 504T448 451T504 284V0H337V69Q323 33 290 13T211 -8Q160 -8 119 12T55 69T31 152Q31 205 58 236T146 282T308 296H335V308Q335 345 318 359T258 374Q224 374 180 361T96 326L51 443Q94
469 158 486T277 504Q393 504 448 451ZM289 111T312 136T335 202V214H319Q255 214 228 203T201 164Q201 141 215 126T253 111Q289 111 312 136ZM228 556H95L230 762H332L467 556H334L281 662L228 556Z" />
<glyph unicode="&#xe3;" glyph-name="atilde" horiz-adv-x="552" d="M393 504T448 451T504 284V0H337V69Q323 33 290 13T211 -8Q160 -8 119 12T55 69T31 152Q31 205 58 236T146 282T308 296H335V308Q335 345 318 359T258 374Q224 374 180 361T96 326L51 443Q94
469 158 486T277 504Q393 504 448 451ZM289 111T312 136T335 202V214H319Q255 214 228 203T201 164Q201 141 215 126T253 111Q289 111 312 136ZM102 662T135 701T218 740Q235 740 251 734T291 713Q311 701 323 696T347 690Q364 690 374 702T388 737H460Q460 658
427 619T344 580Q327 580 311 586T271 607Q251 619 239 624T215 630Q198 630 188 618T174 583H102Q102 662 135 701Z" />
<glyph unicode="&#xe4;" glyph-name="adieresis" horiz-adv-x="552" d="M393 504T448 451T504 284V0H337V69Q323 33 290 13T211 -8Q160 -8 119 12T55 69T31 152Q31 205 58 236T146 282T308 296H335V308Q335 345 318 359T258 374Q224 374 180 361T96 326L51 443Q94
469 158 486T277 504Q393 504 448 451ZM289 111T312 136T335 202V214H319Q255 214 228 203T201 164Q201 141 215 126T253 111Q289 111 312 136ZM103 732H261V583H103V732ZM301 732H459V583H301V732Z" />
<glyph unicode="&#xe5;" glyph-name="aring" horiz-adv-x="552" d="M393 504T448 451T504 284V0H337V69Q323 33 290 13T211 -8Q160 -8 119 12T55 69T31 152Q31 205 58 236T146 282T308 296H335V308Q335 345 318 359T258 374Q224 374 180 361T96 326L51 443Q94
469 158 486T277 504Q393 504 448 451ZM289 111T312 136T335 202V214H319Q255 214 228 203T201 164Q201 141 215 126T253 111Q289 111 312 136ZM234 549T201 581T168 660Q168 706 201 738T281 770Q328 770 361 738T394 660Q394 613 361 581T281 549Q234 549 201
581ZM299 616T310 629T322 660Q322 678 311 690T281 703Q263 703 252 691T240 660Q240 642 251 629T281 616Q299 616 310 629Z" />
<glyph unicode="&#xe6;" glyph-name="ae" horiz-adv-x="831" d="M802 212H503Q510 164 533 143T602 122Q642 122 680 134T749 167L794 50Q757 23 705 8T600 -8Q532 -8 481 15T399 82Q376 38 333 15T233 -8Q175 -8 129 12T57 69T31 152Q31 205 58 236T144 282T305
296H332V309Q332 343 316 358T263 374Q224 374 179 361T96 326L51 443Q93 469 157 486T275 504Q384 504 434 448Q495 504 587 504Q650 504 699 473T775 384T802 252V212ZM511 384T502 296H653Q650 339 633 361T584 384Q511 384 502 296ZM289 111T310 137T332 201V214H315Q254
214 228 202T201 164Q201 140 216 126T258 111Q289 111 310 137Z" />
<glyph unicode="&#xe7;" glyph-name="ccedilla" horiz-adv-x="500" d="M465 26T420 11T323 -7L317 -40H326Q367 -40 389 -58T412 -109Q412 -149 376 -173T270 -198Q249 -198 222 -194T175 -181L185 -117Q233 -131 265 -131Q307 -131 307 -109Q307 -92 276 -92Q264
-92 244 -97L224 -75L233 -3Q136 14 83 79T29 245Q29 322 63 381T160 472T305 504Q360 504 411 488T495 445L450 325Q425 345 390 357T323 370Q269 370 241 340T212 249Q212 188 240 157T323 126Q354 126 389 138T450 172L495 51Q465 26 420 11Z" />
<glyph unicode="&#xe8;" glyph-name="egrave" horiz-adv-x="535" d="M506 212H202Q210 164 237 143T314 122Q350 122 387 134T453 167L498 50Q461 23 409 8T305 -8Q220 -8 158 23T63 112T29 248Q29 322 60 380T148 471T276 504Q382 504 444 437T506 252V212ZM210
384T200 296H357Q351 384 281 384Q210 384 200 296ZM222 556L64 762H232L330 556H222Z" />
<glyph unicode="&#xe9;" glyph-name="eacute" horiz-adv-x="535" d="M506 212H202Q210 164 237 143T314 122Q350 122 387 134T453 167L498 50Q461 23 409 8T305 -8Q220 -8 158 23T63 112T29 248Q29 322 60 380T148 471T276 504Q382 504 444 437T506 252V212ZM210
384T200 296H357Q351 384 281 384Q210 384 200 296ZM330 556H222L320 762H488L330 556Z" />
<glyph unicode="&#xea;" glyph-name="ecircumflex" horiz-adv-x="535" d="M506 212H202Q210 164 237 143T314 122Q350 122 387 134T453 167L498 50Q461 23 409 8T305 -8Q220 -8 158 23T63 112T29 248Q29 322 60 380T148 471T276 504Q382 504 444 437T506 252V212ZM210
384T200 296H357Q351 384 281 384Q210 384 200 296ZM223 556H90L225 762H327L462 556H329L276 662L223 556Z" />
<glyph unicode="&#xeb;" glyph-name="edieresis" horiz-adv-x="535" d="M506 212H202Q210 164 237 143T314 122Q350 122 387 134T453 167L498 50Q461 23 409 8T305 -8Q220 -8 158 23T63 112T29 248Q29 322 60 380T148 471T276 504Q382 504 444 437T506 252V212ZM210
384T200 296H357Q351 384 281 384Q210 384 200 296ZM98 732H256V583H98V732ZM296 732H454V583H296V732Z" />
<glyph unicode="&#xec;" glyph-name="igrave" horiz-adv-x="281" d="M52 0V492H230V0H52ZM87 556L-71 762H97L195 556H87Z" />
<glyph unicode="&#xed;" glyph-name="iacute" horiz-adv-x="281" d="M52 0V492H230V0H52ZM195 556H87L185 762H353L195 556Z" />
<glyph unicode="&#xee;" glyph-name="icircumflex" horiz-adv-x="281" d="M52 0V492H230V0H52ZM88 556H-45L90 762H192L327 556H194L141 662L88 556Z" />
<glyph unicode="&#xef;" glyph-name="idieresis" horiz-adv-x="281" d="M52 0V492H230V0H52ZM-37 732H121V583H-37V732ZM161 732H319V583H161V732Z" />
<glyph unicode="&#xf0;" glyph-name="eth" horiz-adv-x="608" d="M538 485T558 423T579 301Q579 154 504 73T293 -8Q216 -8 156 21T63 103T29 225Q29 291 60 343T148 425T275 455Q351 455 397 421Q379 466 346 502L164 457L141 544L248 570Q200 592 144 597L182
717Q325 701 428 615L551 645L573 558L498 540Q538 485 558 423ZM346 125T370 150T395 225Q395 326 300 326Q205 326 205 225Q205 125 300 125Q346 125 370 150Z" />
<glyph unicode="&#xf1;" glyph-name="ntilde" horiz-adv-x="605" d="M471 504T514 452T557 292V0H379V284Q379 328 364 348T317 368Q277 368 254 343T230 274V0H52V492H225V426Q251 464 292 484T383 504Q471 504 514 452ZM126 662T159 701T242 740Q259 740 275
734T315 713Q335 701 347 696T371 690Q388 690 398 702T412 737H484Q484 658 451 619T368 580Q351 580 335 586T295 607Q275 619 263 624T239 630Q222 630 212 618T198 583H126Q126 662 159 701Z" />
<glyph unicode="&#xf2;" glyph-name="ograve" horiz-adv-x="600" d="M219 -8T158 23T63 113T29 249Q29 327 62 384T157 473T300 504Q382 504 443 473T537 385T571 249Q571 171 538 113T443 24T300 -8Q219 -8 158 23ZM395 125T395 249Q395 373 300 373Q205 373
205 249Q205 125 300 125Q395 125 395 249ZM246 556L88 762H256L354 556H246Z" />
<glyph unicode="&#xf3;" glyph-name="oacute" horiz-adv-x="600" d="M219 -8T158 23T63 113T29 249Q29 327 62 384T157 473T300 504Q382 504 443 473T537 385T571 249Q571 171 538 113T443 24T300 -8Q219 -8 158 23ZM395 125T395 249Q395 373 300 373Q205 373
205 249Q205 125 300 125Q395 125 395 249ZM354 556H246L344 762H512L354 556Z" />
<glyph unicode="&#xf4;" glyph-name="ocircumflex" horiz-adv-x="600" d="M219 -8T158 23T63 113T29 249Q29 327 62 384T157 473T300 504Q382 504 443 473T537 385T571 249Q571 171 538 113T443 24T300 -8Q219 -8 158 23ZM395 125T395 249Q395 373 300 373Q205
373 205 249Q205 125 300 125Q395 125 395 249ZM247 556H114L249 762H351L486 556H353L300 662L247 556Z" />
<glyph unicode="&#xf5;" glyph-name="otilde" horiz-adv-x="600" d="M219 -8T158 23T63 113T29 249Q29 327 62 384T157 473T300 504Q382 504 443 473T537 385T571 249Q571 171 538 113T443 24T300 -8Q219 -8 158 23ZM395 125T395 249Q395 373 300 373Q205 373
205 249Q205 125 300 125Q395 125 395 249ZM121 662T154 701T237 740Q254 740 270 734T310 713Q330 701 342 696T366 690Q383 690 393 702T407 737H479Q479 658 446 619T363 580Q346 580 330 586T290 607Q270 619 258 624T234 630Q217 630 207 618T193 583H121Q121
662 154 701Z" />
<glyph unicode="&#xf6;" glyph-name="odieresis" horiz-adv-x="600" d="M219 -8T158 23T63 113T29 249Q29 327 62 384T157 473T300 504Q382 504 443 473T537 385T571 249Q571 171 538 113T443 24T300 -8Q219 -8 158 23ZM395 125T395 249Q395 373 300 373Q205 373
205 249Q205 125 300 125Q395 125 395 249ZM122 732H280V583H122V732ZM320 732H478V583H320V732Z" />
<glyph unicode="&#xf7;" glyph-name="divide" horiz-adv-x="600" d="M230 410V539H358V410H230ZM544 347V228H56V347H544ZM230 29V158H358V29H230Z" />
<glyph unicode="&#xf8;" glyph-name="oslash" horiz-adv-x="600" d="M521 422T546 370T571 249Q571 171 538 113T443 24T300 -8Q254 -8 210 3L168 -69L89 -22L126 42Q80 75 55 128T29 249Q29 327 62 384T157 473T300 504Q346 504 390 493L432 565L511 518L474
455Q521 422 546 370ZM202 214T210 185L320 373Q313 374 300 374Q250 374 226 344T202 249Q202 214 210 185ZM350 123T374 153T399 249Q399 285 391 312L281 124Q287 123 300 123Q350 123 374 153Z" />
<glyph unicode="&#xf9;" glyph-name="ugrave" horiz-adv-x="600" d="M548 492V0H375V66Q352 30 317 11T235 -8Q140 -8 94 44T48 204V492H226V200Q226 128 288 128Q324 128 347 154T370 222V492H548ZM245 556L87 762H255L353 556H245Z" />
<glyph unicode="&#xfa;" glyph-name="uacute" horiz-adv-x="600" d="M548 492V0H375V66Q352 30 317 11T235 -8Q140 -8 94 44T48 204V492H226V200Q226 128 288 128Q324 128 347 154T370 222V492H548ZM353 556H245L343 762H511L353 556Z" />
<glyph unicode="&#xfb;" glyph-name="ucircumflex" horiz-adv-x="600" d="M548 492V0H375V66Q352 30 317 11T235 -8Q140 -8 94 44T48 204V492H226V200Q226 128 288 128Q324 128 347 154T370 222V492H548ZM246 556H113L248 762H350L485 556H352L299 662L246 556Z" />
<glyph unicode="&#xfc;" glyph-name="udieresis" horiz-adv-x="600" d="M548 492V0H375V66Q352 30 317 11T235 -8Q140 -8 94 44T48 204V492H226V200Q226 128 288 128Q324 128 347 154T370 222V492H548ZM121 732H279V583H121V732ZM319 732H477V583H319V732Z" />
<glyph unicode="&#xfd;" glyph-name="yacute" horiz-adv-x="541" d="M388 491H562L262 -180H82L181 34L-20 491H166L274 214L388 491ZM325 556H217L315 762H483L325 556Z" />
<glyph unicode="&#xfe;" glyph-name="thorn" horiz-adv-x="625" d="M441 504T490 471T567 380T595 245Q595 170 568 113T491 24T378 -8Q331 -8 292 11T230 62V-180H52V705H230V434Q252 466 291 485T378 504Q441 504 490 471ZM369 125T394 156T419 245Q419 306
394 338T323 371Q277 371 252 339T227 247Q227 188 252 157T324 125Q369 125 394 156Z" />
<glyph unicode="&#xff;" glyph-name="ydieresis" horiz-adv-x="541" d="M388 491H562L262 -180H82L181 34L-20 491H166L274 214L388 491ZM93 732H251V583H93V732ZM291 732H449V583H291V732Z" />
<glyph unicode="&#x2013;" glyph-name="endash" horiz-adv-x="500" d="M0 218V319H500V218H0Z" />
<glyph unicode="&#x2014;" glyph-name="emdash" horiz-adv-x="1000" d="M0 218V319H1000V218H0Z" />
<glyph unicode="&#x2018;" glyph-name="quoteleft" horiz-adv-x="272" d="M228 558V376H43V491Q43 555 66 607T145 714L211 660Q158 607 145 558H228Z" />
<glyph unicode="&#x2019;" glyph-name="quoteright" horiz-adv-x="272" d="M228 705V590Q228 526 205 474T127 368L60 421Q114 475 127 523H43V705H228Z" />
<glyph unicode="&#x201a;" glyph-name="quotesinglbase" horiz-adv-x="272" d="M228 182V67Q228 3 205 -49T127 -155L60 -102Q114 -48 127 0H43V182H228Z" />
<glyph unicode="&#x201c;" glyph-name="quotedblleft" horiz-adv-x="495" d="M228 558V376H43V491Q43 555 66 607T145 714L211 660Q158 607 145 558H228ZM451 558V376H266V491Q266 555 289 607T368 714L434 660Q381 607 368 558H451Z" />
<glyph unicode="&#x201d;" glyph-name="quotedblright" horiz-adv-x="495" d="M228 705V590Q228 526 205 474T127 368L60 421Q114 475 127 523H43V705H228ZM451 705V590Q451 526 428 474T350 368L283 421Q337 475 350 523H266V705H451Z" />
<glyph unicode="&#x201e;" glyph-name="quotedblbase" horiz-adv-x="495" d="M228 182V67Q228 3 205 -49T127 -155L60 -102Q114 -48 127 0H43V182H228ZM451 182V67Q451 3 428 -49T350 -155L283 -102Q337 -48 350 0H266V182H451Z" />
<glyph unicode="&#x2022;" glyph-name="bullet" horiz-adv-x="524" d="M214 88T172 111T106 175T81 265Q81 311 104 352T169 418T262 443Q310 443 351 420T418 356T443 265Q443 217 419 177T353 112T262 88Q214 88 172 111Z" />
<glyph unicode="&#x2039;" glyph-name="guilsinglleft" horiz-adv-x="320" d="M169 60L62 223V309L166 472L283 418L214 266L283 113L169 60Z" />
<glyph unicode="&#x203a;" glyph-name="guilsinglright" horiz-adv-x="312" d="M151 60L37 113L106 266L37 418L153 472L257 309V223L151 60Z" />
</font>
</defs>
</svg>
